Hotel Mumbai (2019) 720p [Hindi (ORG) + English] H264 ESUBS Blura...

seeders: 33
leechers: 8
updated:
Added by Mansimran in Other


ᕦ( ▨̅ ͜▨̅ )ᕥ SPECIAL DEAL - OFFER ᕦ( ▨̅ ͜▨̅ )ᕥ
strongly advises you to use Nord while downloading torrents.
Nord is the safest on the market, and the fastest as well.
No IP Log is saved using Nord, avoid other providers and choose the safest one.
Click here and buy Nord it's on rebates today!
We were able to verify your IP: 3.218.67.1, country: United States.
If we can do that, others can too, protect your privacy with Nord.
is trying the best for you!
ᕦ( ▨̅ ͜▨̅ )ᕥ SPECIAL DEAL - OFFER ᕦ( ▨̅ ͜▨̅ )ᕥ


Description

Quote:Hotel Mumbai (2019) 720p [Hindi (ORG) + English] H264 Bluray - By Movieaio  

 

Telegram - Movieaio  

 

 
 

Quote:Poster :  
 
 

Quote:Screenshots :
 
 
 
 
 
 

Thanks for the download

Dont Forget to seed As much you Download

- Movieaio  

Code:General
Unique ID                                : 18821714364498986454468781835051010639 (0xE28EE2A1A2C6441441773B444F70A4F)
Complete name                            : D:\Ullu\converted\[Telegram - Movieaio] Hotel Mumbai (2019) 720p [Hindi (ORG) + English] H264 Bluray\[Telegram - Movieaio] Hotel Mumbai (2019) 720p [Hindi (ORG) + English] H264 Bluray.mkv
Format                                   : Matroska
Format version                           : Version 4
File size                                : 1 018 MiB
Duration                                 : 2 h 2 min
Overall bit rate                         : 1 159 kb/s
Movie name                               : Telegram - Movieaio
Encoded date                             : UTC 2020-01-24 04:30:38
Writing application                      : mkvmerge v42.0.0 ('Overtime') 64-bit
Writing library                          : libebml v1.3.10 + libmatroska v1.5.2

Video
ID                                       : 1
Format                                   : AVC
Format/Info                              : Advanced Video Codec
Format profile                           : [email protected] 
Format settings                          : CABAC / 8 Ref Frames
Format settings, CABAC                   : Yes
Format settings, Reference frames        : 8 frames
Codec ID                                 : V_MPEG4/ISO/AVC
Duration                                 : 2 h 2 min
Bit rate                                 : 1 000 kb/s
Width                                    : 1 280 pixels
Height                                   : 536 pixels
Display aspect ratio                     : 2.40:1
Frame rate mode                          : Constant
Frame rate                               : 23.976 (24000/1001) FPS
Color space                              : YUV
Chroma subsampling                       : 4:2:0
Bit depth                                : 8 bits
Scan type                                : Progressive
Bits/(Pixel*Frame)                       : 0.061
Stream size                              : 876 MiB (86%)
Title                                    : Telegram - Movieaio
Writing library                          : x264 core 142 r2479 dd79a61
Encoding settings                        : cabac=1 / ref=8 / deblock=1:0:0 / analyse=0x3:0x113 / me=umh / subme=9 / psy=1 / psy_rd=1.00:0.00 / mixed_ref=1 / me_range=16 / chroma_me=1 / trellis=2 / 8x8dct=1 / cqm=0 / deadzone=21,11 / fast_pskip=1 / chroma_qp_offset=-2 / threads=72 / lookahead_threads=4 / sliced_threads=0 / nr=0 / decimate=1 / interlaced=0 / bluray_compat=0 / constrained_intra=0 / bframes=8 / b_pyramid=2 / b_adapt=1 / b_bias=0 / direct=1 / weightb=1 / open_gop=0 / weightp=2 / keyint=240 / keyint_min=24 / scenecut=40 / intra_refresh=0 / rc_lookahead=40 / rc=2pass / mbtree=1 / bitrate=1000 / ratetol=1.0 / qcomp=0.60 / qpmin=0 / qpmax=69 / qpstep=4 / cplxblur=20.0 / qblur=0.5 / ip_ratio=1.40 / aq=1:1.00
Default                                  : Yes
Forced                                   : No
Color range                              : Limited
Color primaries                          : BT.709
Transfer characteristics                 : BT.709
Matrix coefficients                      : BT.709

Audio #1
ID                                       : 2
Format                                   : AAC LC SBR
Format/Info                              : Advanced Audio Codec Low Complexity with Spectral Band Replication
Commercial name                          : HE-AAC
Format settings                          : NBC
Codec ID                                 : A_AAC-5
Duration                                 : 2 h 2 min
Bit rate                                 : 96.0 kb/s
Channel(s)                               : 2 channels
Channel layout                           : L R
Sampling rate                            : 48.0 kHz
Frame rate                               : 23.438 FPS (2048 SPF)
Compression mode                         : Lossy
Delay relative to video                  : -105 ms
Stream size                              : 84.4 MiB (8%)
Title                                    : Telegram - Movieaio
Language                                 : Hindi
Default                                  : Yes
Forced                                   : No

Audio #2
ID                                       : 3
Format                                   : AAC LC SBR
Format/Info                              : Advanced Audio Codec Low Complexity with Spectral Band Replication
Commercial name                          : HE-AAC
Format settings                          : NBC
Codec ID                                 : A_AAC-5
Duration                                 : 2 h 2 min
Bit rate                                 : 64.0 kb/s
Channel(s)                               : 2 channels
Channel layout                           : L R
Sampling rate                            : 48.0 kHz
Frame rate                               : 23.438 FPS (2048 SPF)
Compression mode                         : Lossy
Delay relative to video                  : -105 ms
Stream size                              : 56.3 MiB (6%)
Title                                    : Telegram - Movieaio
Language                                 : English
Default                                  : No
Forced                                   : No

Text
ID                                       : 4
Format                                   : UTF-8
Codec ID                                 : S_TEXT/UTF8
Codec ID/Info                            : UTF-8 Plain Text
Duration                                 : 1 h 55 min
Bit rate                                 : 39 b/s
Count of elements                        : 1124
Stream size                              : 33.0 KiB (0%)
Title                                    : Telegram - Movieaio
Language                                 : English
Default                                  : Yes
Forced                                   : No 

Sharing Widget


Download torrent
Size: 1.018.4 MB
seeders:33
leechers:8
Hotel Mumbai (2019) 720p [Hindi (ORG) + English] H264 ESUBS Blura... - (1067450 Bytes)



To share this torrent use the code below and insert it into comments, status messages, forum posts or your signature.

Torrent: Hotel Mumbai (2019) 720p [Hindi (ORG) + English] H264 ESUBS Blura...

Trackers

tracker name
udp://tracker.opentrackr.org:1337/announce
udp://p4p.arenabg.com:1337/announce
udp://denis.stalker.upeer.me:6969/announce
https://tracker.vectahosting.eu:2053/announce
udp://tracker.sbsub.com:2710/announce
https://tracker.opentracker.se:443/announce
https://tracker.no-dmca.ninja:2087/announce
https://tracker.fr.eu.org:8443/announce
https://tracker.heaterdown.eu:443/announce
https://tracker.sloppyta.co:443/announce
udp://open.stealth.si:80/announce
udp://ipv4.tracker.harry.lu:80/announce
udp://tracker.torrent.eu.org:451/announce
udp://tracker.uw0.xyz:6969/announce
udp://tracker.zer0day.to:1337/announce
udp://tracker.leechers-paradise.org:6969/announce
udp://coppersurfer.tk:6969/announce
µTorrent compatible trackers list

Locations

name
KickassTorrents
Torrent hash: F07CF67D56BC11CA7D64ED3B59BEE3599CA53A5B

ᕦ( ▨̅ ͜▨̅ )ᕥ SPECIAL DEAL - OFFER ᕦ( ▨̅ ͜▨̅ )ᕥ
strongly advises you to use Nord while downloading torrents.
Nord is the safest on the market, and the fastest as well.
No IP Log is saved using Nord, avoid other providers and choose the safest one.
Click here and buy Nord it's on rebates today!
We were able to verify your IP: 3.218.67.1, country: United States.
If we can do that, others can too, protect your privacy with Nord.
is trying the best for you!
ᕦ( ▨̅ ͜▨̅ )ᕥ SPECIAL DEAL - OFFER ᕦ( ▨̅ ͜▨̅ )ᕥ


All Comments

*comments box temporarily disabled*
Report a bug